Spletna stran za svoje pravilno delovanje uporablja piškotke. Ali se strinjate, da na vaš računalnik namestimo piškotke in omogočimo pravilno delovanje strani?
Več informacij
   Pogosta vprašanja  |  Multipleksi  |  RSS Novice RSS  |  Najdi Zacetna stranKontaktiE-postaEN
DVB-T v Sloveniji Digitalne tehnologije
AKTUALNO OSNOVE SPREJEMNIKI POKRITOST PREHOD HDTV FORUM
Re: EDISION argus mini 2in1 HD
03.11.2011 16:39
Predvaja avi, ts, mkv. mp4, samo kodek mora biti avc-x264; xvid, divx pa ne predvaja
Re: EDISION argus mini 2in1 HD
03.11.2011 17:33
Kako to misliš kodek avc-x264?
Re: EDISION argus mini 2in1 HD
03.11.2011 18:31
H.264?
Re: EDISION argus mini 2in1 HD
03.11.2011 21:29
Ta film Unknown.2011.720p.BRRip.x264.AC3.dxva-HDLiTE.mkv predvaja, še info:
General
Complete name : H:\Unknown.2011.720p.BRRip.x264.AC3.dxva-HDLiTE\Unknown.2011.720p.BRRip.x264.AC3.dxva-HDLiTE.mkv
Format : Matroska
File size : 2.40 GiB
Duration : 1h 53mn
Overall bit rate : 3 033 Kbps
Encoded date : UTC 2011-06-06 11:34:47
Writing application : mkvmerge v4.6.0 ('Still Crazy After All These Years') built on Mar 10 2011 02:50:32
Writing library : libebml v1.2.0 + libmatroska v1.1.0

Video
ID : 1
Format : AVC
Format/Info : Advanced Video Codec
Format profile : High@L4.1
Format settings, CABAC : Yes
Format settings, ReFrames : 5 frames
Codec ID : V_MPEG4/ISO/AVC
Duration : 1h 53mn
Bit rate : 2 583 Kbps
Width : 1 280 pixels
Height : 528 pixels
Display aspect ratio : 2.40:1
Frame rate : 23.976 fps
Color space : YUV
Chroma subsampling : 4:2:0
Bit depth : 8 bits
Scan type : Progressive
Bits/(Pixel*Frame) : 0.159
Stream size : 2.00 GiB (83%)
Writing library : x264 core 114 r1913 5fd3dce


Audio
ID : 2
Format : AC-3
Format/Info : Audio Coding 3
Mode extension : CM (complete main)
Codec ID : A_AC3
Duration : 1h 53mn
Bit rate mode : Constant
Bit rate : 448 Kbps
Channel(s) : 6 channels
Channel positions : Front: L C R, Side: L R, LFE
Sampling rate : 48.0 KHz
Bit depth : 16 bits
Compression mode : Lossy
Stream size : 363 MiB (15%)
Language : English
Re: EDISION argus mini 2in1 HD
10.11.2011 09:08
Zdravo

Imam dve vprašanji. Na netu sem videl, da se da argus vip 2 povezati s programom enigma 2 , ki potem odpira programe. Ali ima kdo kakšne izkušnje s tem?

Imam trdi disk WD E-BOOK, ki sem ga radelil na tri particije. Pogosto se zgodi, da zaradi ILV software-ja reciver ugasne in se na novo naloži. Včasih potem ne zazna ene od particij in moram zato trdi disk preklopit na računalnik in s tiste particije (npr.Esmiling smiley, ki je reciver ni zaznal izbrisat sistemske datoteke. Disk ponovna priklopim na reciver in le ta ponovno zazna vse particije.
L.p.
Re: EDISION argus mini 2in1 HD
08.03.2013 18:24
Kupil sem EDISONA iz druge roke, ta pa ima programirano iskanje satelitov z elektromotorjem. Zanima me kako lahko izklopim iskanje z elektromotorjem, ko pa imam fiksno parabolo s štirimi sateliti. Moti me to, ko preklapljam kanale in se mi pokaže napis, da išče satelit. Navodil ni, zato mi je delo malo oteženo.
Re: EDISION argus mini 2in1 HD
08.03.2013 21:20
Ne vem točno, ker nimam izkušenj s sprejemniki, ampak najbrž gre za nastavitve v zvezi z DiSEqC, tako da poglej, če je kaj podobnega v meniju. Predvidevam, da je nastavljeno na motor, moralo pa bi biti pos. A, pos. B in tako naprej. Nekaj takega.



Sporočilo spremenjeno 1-krat. Zadnja sprememba 08.03.2013 21:20, Kosinus.
Re: EDISION argus mini 2in1 HD
09.03.2013 15:31
Hvala, res je v zvezi z DiSEqC. Tam sem samo nastavil izklop in je zadeva urejena. Problem pa imam še , ko ne morem vzpostaviti sat. sprejem naslednje frekvence :
orbitalna pozicija: 13°E (vzhodno)
polarizacija: Vertikalna
frekvenca: 12520 MHz
simbolna hitrost: 27.500
kodno razmerje (FEC): 3/4
to je frekvenca TV SLO na HOTBIRDU
Tu ni signala, a ostale frekvence imajo dober signal. A so mogoče kake nastavitve narobe narejene?
Re: EDISION argus mini 2in1 HD
09.03.2013 18:16
Uf, to je res čudno. Edini parameter, ki ga nisi napisal, je modulacija in sicer je pri tej frekvenci QPSK. Še to preveri, če se ujema. A ti delajo frekvence, ki so višje od slovenske? Tu je seznam. Če bi imel slabo nastavljeno anteno ali predolg kabel, najprej odpovejo najvišje frekvence in glede na seznam je slovenska ena izmed njih. Ali je vse v redu s signalom, lahko preveriš tudi z drugim sprejemnikom, če ga imaš oz. si ga sposodiš.
Re: EDISION argus mini 2in1 HD
10.03.2013 11:44
Sem malo preverill stanje, verjetno bo potrebno pregledati povezavo med konvertejem in kretnico. Ima slab signal. Ostali delujejo brezhibno. Ker sem imel prej TOTAL kartico, nisem bil toliko vezan na ostale satelite. Sedaj, ko TOTAL kartice nimam, bo potrebno malo posodobiti sistem. Hvala.
Žal lahko v tem forumu objavljajo le registrirani uporabniki.

Klikni tukaj za prijavo

 


AKOS  DVB-T Portal RTV Slovenija  Projekt DVB DigiTAG EICTA

Copyright © 2008-2014, Agencija za komunikacijska omrežja in storitve RS, vse pravice pridržane
DVB je registrirana blagovna znamka projekta DVB
Pravno obvestilo